#TITLE:Lawn Wake I;
#SUBTITLE:;
#ARTIST:the flashbulb;
#TITLETRANSLIT:;
#SUBTITLETRANSLIT:;
#ARTISTTRANSLIT:;
#CREDIT:;
#BANNER:lawnfake-bn.png;
#BACKGROUND:lawnfake-bg.png;
#LYRICSPATH:;
#CDTITLE:!cdtitle.png;
#MUSIC:Lawn Wake I.mp3;
#OFFSET:-0.020;
#SAMPLESTART:42.440;
#SAMPLELENGTH:12.000;
#SELECTABLE:YES;
#BPMS:0.000=215.000,208.000=107.500,212.000=215.000;
#STOPS:;
#BGCHANGES:;
// cache tags:
#FIRSTBEAT:19.000;
#LASTBEAT:532.000;
#SONGFILENAME:Songs/Music V.I.P ^_^/Lawn Wake I/LWI.sm;
#HASMUSIC:1;
#HASBANNER:1;
#MUSICLENGTH:149.637;
// end cache tags

//---------------dance-single - ----------------
#NOTES:
     dance-single:
     :
     Hard:
     13:
     1.000,1.000,0.702,0.287,1.000,1287.000,105.000,43.000,0.000,0.000:
0000
0000
0000
0000
,
0000
0000
0000
0000
,
0000
0000
0000
0000
,
0000
0000
0000
0000
,
0000
0000
0000
0002
,
0000
0000
0000
0000
,
0000
0000
0000
0003
,
0000
0000
0000
0000
0000
0000
0200
0020
,
0000
0000
0000
0000
,
0000
0000
0000
0000
,
0000
0000
0000
0000
,
0000
0000
0000
0000
,
0000
0000
0000
0000
,
0000
0000
0330
0000
,
1000
0000
0100
0000
1000
0010
0100
0001
1000
0000
0100
0000
1000
0000
0010
0100
,
0001
1000
0100
0100
1000
0001
0001
0100
,
0010
0000
1000
0000
0100
0010
0100
1000
0010
0000
0100
0000
0001
0000
1000
0100
,
1000
1000
1000
1000
0001
0100
0100
0010
,
0100
0000
0001
0000
1000
0100
0010
0001
0100
0000
0001
0000
1000
0000
0010
0100
,
0001
1000
0100
0100
1000
0001
0001
0100
,
0010
1000
0100
1000
0010
0100
0000
0001
,
0000
1000
0000
0100
0010
0001
0100
0000
,
0010
0000
1000
0000
0001
0100
0010
1000
0100
0000
1000
0000
0100
0000
0010
0001
,
1000
0010
0100
0100
0010
1000
1000
0010
,
0100
0000
0001
0000
1000
0100
0010
0001
1000
0000
0001
0000
0100
0000
0010
1000
,
0010
0010
0010
0010
0100
0001
0001
1000
,
0100
0000
1000
0000
0010
0100
0001
1000
0100
0000
1000
0000
0010
0000
0100
0001
,
0010
0001
0010
0010
0001
1000
1000
0010
,
0100
0001
1000
0000
0100
0010
0001
1000
0010
0100
0010
1000
0001
0010
0100
1000
,
0010
0100
0001
0100
0010
1000
0001
0010
0100
1000
0010
0100
0001
2000
0000
0000
,
3020
0000
0000
0000
0000
0000
0000
0000
0030
0000
0100
0001
1000
0100
1000
0010
,
0100
0001
0010
0100
1000
0001
0100
0001
1000
0010
0100
0010
1000
0100
1000
0010
,
0100
0001
0010
0100
1000
0010
0100
0010
1000
0100
0010
0001
0100
0010
1000
0100
,
0010
0100
2000
0000
3010
0100
0001
1000
0100
0010
0001
1000
0010
0100
0001
1000
,
0200
0000
0320
0000
,
0032
0000
2003
0000
,
3020
0000
0230
0000
,
0000
0302
0000
0000
,
1003
0000
0100
0000
1000
0010
0100
0001
1000
0000
0100
0000
1000
0000
0010
0100
,
0001
1000
0100
0100
1000
0001
0001
0100
,
0010
0000
0100
0000
0001
1000
0100
0010
0001
0000
0100
0000
0010
0000
1000
0100
,
0010
0010
0010
0010
0001
0100
0100
0010
,
0100
0000
0001
0000
0010
0100
1000
0010
0100
0000
0001
0000
1000
0000
0100
1000
,
0010
0100
0010
0010
1000
0100
0100
0010
,
0001
1000
0010
0100
0002
0003
1000
0100
0010
0001
2000
3000
0010
0100
0001
1000
,
0200
0300
0010
0100
1000
0000
0010
0000
0100
0000
0001
0000
1000
0000
0000
0000
,
0011
0000
0100
0000
0010
1000
0100
0010
0001
0000
1000
0000
0100
0000
0010
0100
,
1000
0010
0100
0100
0001
1000
1000
0100
,
0011
0000
1000
0000
0010
0100
0001
1000
0100
0000
0010
0000
0100
0000
1000
0010
,
0100
0100
0100
0100
0001
1000
1000
0100
,
1001
0000
0100
0000
0010
0001
1000
0010
0100
0000
0001
0000
1000
0000
0100
0010
,
0001
0100
0010
0010
1000
0100
0100
1000
,
0011
0100
0010
1000
0010
0100
0001
1000
0100
1000
0010
0100
0001
1000
0200
0300
,
1010
0000
0100
0001
1000
0100
0011
0000
1000
0100
0010
0100
1000
0010
0100
0001
,
1100
0000
0000
0110
0000
0000
0011
0000
1010
0000
0100
0000
0011
0000
0100
0000
,
1010
0000
0100
0001
1000
0100
1000
0010
0100
0001
0000
1000
0100
0000
0010
0000
,
0101
0000
0000
0000
0000
0000
0010
0000
0000
1000
0000
0000
0010
0000
0000
0100
0000
0000
0001
0000
0000
0000
0000
0000
1000
0000
0000
0100
0000
0000
0010
0000
0000
0001
0000
0000
1000
0000
0000
0000
0010
0000
0000
0000
0100
0000
0000
0000
,
0001
0000
1000
0001
0100
0000
0010
0100
0001
0000
0100
0000
0010
1000
0100
0010
,
1001
0000
0000
1010
0000
0000
0101
0000
1100
0000
0010
0000
0101
0000
0010
0000
,
1100
0000
0010
0001
1000
0010
0100
0001
0000
1000
0100
0010
0001
0000
1000
0000
,
0110
0000
0000
0000
0000
0000
0001
0000
0000
1000
0000
0000
0100
0000
0000
1000
0000
0000
0011
0000
0000
0000
0000
0000
1000
0000
0000
0010
0000
0000
0100
0000
0000
0001
0000
0000
1000
0000
0000
0000
0100
0000
0000
0000
0010
0000
0000
0000
,
0001
0100
0001
0100
0010
1000
0010
0000
1010
0000
0100
0001
1000
0100
1000
0001
,
0110
0000
0000
1100
0000
0000
0011
0000
0110
0000
1000
0000
0010
0100
0001
1000
,
0100
0000
0100
1000
0010
0100
0001
0000
0001
1000
0010
1000
0001
0000
0001
0100
,
0010
0000
0010
1000
0100
0010
0001
1000
0001
0100
0010
1000
0011
0000
0000
0000
,
1000
0010
0100
0001
1000
0001
0010
0000
0100
0000
1000
0100
0010
0001
0100
0010
,
1001
0000
0000
0110
0000
0000
1100
0000
0011
0000
0100
0000
1001
0100
0001
0010
,
0100
0000
1000
0100
0010
0100
1000
0000
0001
0100
0010
1000
0001
0000
1000
0100
,
0010
0000
0100
1000
0001
0100
0010
0000
1000
0000
0010
0100
0001
0000
1000
0000
,
0100
0000
0010
0001
1000
0010
0100
0000
0001
0000
0100
0000
0001
0000
1000
0000
,
0110
0000
0000
1001
0000
0000
0101
0000
1010
0000
0100
0000
0010
0001
1000
0010
,
0100
0000
0001
1000
0100
0010
0001
0000
0100
0010
1000
0100
0010
0000
0100
1000
,
0001
0000
0100
0010
1000
0100
0010
0000
0001
0000
1000
0010
0100
0010
1000
0001
,
0100
0000
0010
1000
0100
0010
0001
0000
1000
0000
0010
0100
0001
1000
0001
0100
,
2020
0000
0000
0000
0000
0000
3030
0000
0000
0100
0000
0000
0000
0000
0000
0000
0000
0000
0001
0000
0000
0000
0000
0000
1000
0000
0000
0000
0000
0000
0100
0000
0000
0000
0000
0000
0010
0000
0000
0001
0000
0000
1000
0000
0010
0000
0100
0000
,
0001
0000
1000
0001
0100
0010
1000
0000
0100
0010
0001
1000
0010
0000
0100
0001
,
1000
0100
1000
0001
0100
0010
1000
0000
0002
0003
0010
0100
1000
0000
0001
0000
,
0100
0010
1000
0010
0100
0001
1000
0100
0011
0000
1000
0000
0010
0100
0010
0100
,
1001
0000
0000
1100
0000
0000
0101
0000
1010
0000
0100
0000
0010
0001
1000
0010
,
0100
0000
0001
1000
0100
0010
0001
0000
0100
0010
1000
0001
0100
0000
0010
0100
,
0001
0000
1000
0100
0010
0100
1000
0001
0100
0000
0010
0100
2002
3003
0100
0000
,
1000
0000
0100
0000
1000
0000
0100
0000
0010
0000
0001
0000
1010
0000
0000
0000
0000
0000
0000
0000
0101
0000
0000
0000
1000
0000
0100
0000
0010
0001
1000
0010
,
0200
0300
0000
0020
0000
0000
0230
0000
0302
0000
0003
0000
1000
0100
0010
0100
,
0011
0000
1000
0010
0100
0010
1000
0000
0001
0010
0100
0010
0001
1000
0100
0010
,
0001
1000
0001
1000
0001
0100
1010
0000
0100
0000
0001
1000
0100
0000
2000
3000
,
0001
0100
0001
0100
0001
0100
0001
0100
1010
0000
0100
0001
1000
0100
0010
0001
,
0100
0010
0100
0001
1000
0100
0010
0001
0110
0000
1000
0010
0100
0001
0010
0001
,
0100
0010
1000
0100
0010
0001
0100
0010
1001
0000
0100
0010
0001
1000
0010
0100
,
1001
0000
0000
0110
0000
0000
1100
0000
0000
0011
0000
0000
0000
0000
0000
0000
,
1000
0010
1000
0010
1000
0010
1000
0010
0101
0000
1000
0100
0010
0100
1000
0001
,
0100
0010
1000
0100
1000
0001
0100
0010
1001
0000
0100
0010
0001
0100
0010
0100
,
0001
0010
0100
1000
0010
0100
0001
1000
0110
0000
0001
1000
0100
1000
0010
0100
,
0011
0000
0000
1100
0000
0000
0110
0000
0000
1001
0000
0000
0000
0000
0000
0000
,
0100
0010
0100
0010
0100
0010
0100
0010
1001
0000
0010
1000
0010
0100
0001
1000
,
0100
1000
0010
0100
0001
1000
0100
1000
0101
0000
1000
0010
0100
0001
0010
0100
,
0010
0001
1000
0100
1000
0010
0100
0001
1010
0000
0100
0001
1000
0100
1000
0010
,
0101
0000
0000
1010
0000
0000
1100
0000
0000
0011
0000
0000
0000
0000
0000
0000
,
0001
1000
0001
1000
0001
1000
0001
1000
0110
0000
0001
0100
0010
1000
0100
0010
,
0100
1000
0001
0010
0001
0100
0010
1000
0011
0000
0100
0010
1000
0100
1000
0001
,
0010
0100
1000
0010
0100
0010
1000
0001
0110
0000
1000
0001
0100
0010
1000
0100
,
0011
0000
0100
0001
1000
0010
0100
0011
0000
2200
3300
0000
0000
0000
0010
0100
,
0001
0000
1000
0000
0100
0000
0010
0000
0001
0000
1000
0000
0110
0000
0000
0000
0000
0000
0000
0000
0101
0000
0000
0000
0010
0000
1000
0100
0010
0001
1000
0000
,
0020
0000
0000
0230
0000
0000
0302
0000
2003
0000
3000
0000
0100
1000
0100
1000
,
0011
0000
1000
0000
0010
0100
0001
1000
0100
0010
0100
0010
0001
1000
0001
1000
,
0010
1000
0010
1000
0001
0100
0011
1000
0010
0100
0010
1000
0011
0100
0010
1000
,
0101
0000
1000
0100
0010
0001
0100
0010
0100
0000
0001
0000
1000
0000
0000
0000
,
2002
0000
0000
0000
3003
0000
0000
0000
0000
0000
0000
0000
0000
0000
0000
0000
0000
0000
0000
0000
0000
0000
0000
0000
0000
0000
0000
0000
1000
0100
0010
0001
,
1000
0010
0100
0001
1000
0000
0100
0010
0001
1000
0010
0000
0100
0001
1000
0100
,
0010
0000
0100
1000
0001
0000
0100
0000
0010
0000
1000
0000
0100
0000
0000
0000
,
1000
0000
0010
0100
0001
0100
0001
0000
1000
0000
0100
0000
1000
0100
0010
0000
,
0001
0000
0100
0010
1000
0010
1000
0000
0100
0000
0010
0000
0001
0000
1000
0000
,
0100
0000
0010
0100
1000
0100
1000
0000
0001
0000
1000
0000
0100
0010
0001
0000
,
1000
0000
0010
0100
0001
0100
0001
0000
0010
0100
1000
0001
0100
0000
0010
1000
,
0100
0000
0010
0001
1000
0010
1000
0000
0002
0003
0100
0000
0010
0000
1000
0000
,
0100
0000
0010
0001
1000
0010
0100
0000
0002
0003
1000
0000
0100
0000
0010
0000
,
0100
0000
1000
0001
0100
0010
1000
0000
0020
0030
0100
0000
0001
0010
0100
0000
,
0010
0000
0001
1000
0100
0010
0001
0000
1000
0010
1000
0000
0001
0000
0100
0000
,
1010
0000
0100
0001
1000
0100
0011
0000
1000
0010
0100
0001
1000
0100
0010
0100
,
1001
0000
0001
0100
0010
1000
0100
1000
0021
0000
0031
0000
2010
3000
0010
0000
,
0100
0000
0000
0001
0000
0000
0100
0000
0000
0001
0000
0000
1000
0000
0000
0100
0000
0000
0010
0000
0001
0000
1000
0000
0100
0000
0000
0000
0000
0000
0010
0000
0000
0000
0000
0000
0101
0000
0000
0000
0000
0000
0010
0000
0000
0000
0000
0000
,
1100
0000
0010
0001
1000
0010
0101
0000
1000
0100
0010
0100
1000
0000
0010
0100
,
1001
0000
0010
0100
0001
1000
0100
0010
0001
0000
1000
0010
0100
0001
1000
0000
,
0110
0000
0001
1000
0010
0100
1001
0000
0110
0000
0001
0100
1010
0000
0100
0000
,
1010
0000
0100
0010
0001
1000
0110
0000
0011
0000
1000
0001
0100
0001
1100
0000
,
0011
0000
0100
0010
1000
0100
0010
0000
0100
1000
0002
0000
0103
0000
0010
1000
,
0001
0000
0000
0000
0001
1000
0100
0010
0001
0000
0100
0000
0010
0000
1000
0001
,
0100
0010
1000
1000
0001
0100
0100
0010
,
1000
0000
0000
0000
0000
0000
0000
0000
0000
0000
0000
0000
0010
0000
0000
0001
0000
0000
1000
0000
0000
0010
0000
0000
0100
0000
0000
0000
0000
0000
0010
0000
0000
0000
0000
0000
0000
0000
0000
0000
0000
0000
1000
0000
0100
0000
0010
0000
,
0001
1000
1000
1000
1000
0001
0010
0010
,
0100
0000
0000
0000
1000
0001
0100
0010
1000
0000
0100
0000
1000
0000
0010
0100
,
0001
1000
0100
0100
0010
0001
0001
1000
,
0011
0100
0010
1000
0001
0100
0000
1010
,
0000
0101
0000
1100
0010
0110
2002
0000
,
3003
0000
0000
0000
;
